<?xml version="1.0" standalone="no"?>
<!DOCTYPE svg PUBLIC "-//W3C//DTD SVG 1.1//EN" "http://www.w3.org/Graphics/SVG/1.1/DTD/svg11.dtd" >
<!--
2013-9-15: Created.
-->
<svg xmlns="http://www.w3.org/2000/svg">
<metadata>
Created by FontForge 20120731 at Sun Sep 15 15:49:38 2013
 By Tyler Wanlass
Created by Tyler Wanlass with FontForge 2.0 (http://fontforge.sf.net)
</metadata>
<defs>
<font id="picto-foundry-medical-science" horiz-adv-x="512" >
  <font-face 
    font-family="picto-foundry-medical-science"
    font-weight="500"
    font-stretch="normal"
    units-per-em="512"
    panose-1="2 0 6 3 0 0 0 0 0 0"
    ascent="448"
    descent="-64"
    bbox="-0.375 -64 512.375 448.379"
    underline-thickness="25.6"
    underline-position="-51.2"
    unicode-range="U+F100-F135"
  />
    <missing-glyph />
    <glyph glyph-name="uniF100" unicode="&#xf100;" horiz-adv-x="474" 
d="M237 448c117 0 237 -129 237 -255c0 -120 -223 -249 -232 -254l-5 -3l-5 3c-9 5 -232 134 -232 254c0 126 120 255 237 255zM237 -43c32 19 219 136 219 236c0 115 -113 237 -219 237s-219 -122 -219 -237c0 -100 187 -217 219 -236zM229 179l-3 -5
c-2 -3 -40 -64 -91 -64c-52 0 -81 92 -84 103l-2 6l5 4c1 1 32 24 81 24c51 0 89 -60 91 -63zM425 223l5 -4l-2 -6c-3 -11 -32 -103 -84 -103c-51 0 -89 61 -91 64l-3 5l3 5c2 3 40 63 91 63c49 0 80 -23 81 -24zM200 28v18h79v-18h-79z" />
    <glyph glyph-name="uniF101" unicode="&#xf101;" 
d="M285 293c1 0 3 -1 3 -2v-36c0 -1 -2 -3 -3 -3h-51v-51c0 -1 -1 -3 -2 -3h-37c-1 0 -2 2 -2 3v51h-51c-1 0 -3 2 -3 3v36c0 1 2 2 3 2h51v51c0 1 1 3 2 3h37c1 0 2 -2 2 -3v-51h51zM507 261c3 -2 5 -5 5 -8v-81c0 -36 -35 -36 -54 -36h-4c0 -29 -24 -53 -53 -53
s-54 24 -54 53h-190c0 -29 -24 -53 -53 -53s-53 24 -53 53c-19 0 -51 2 -51 36v177c0 30 24 54 54 54h186v16c0 16 14 29 30 29s29 -13 29 -29v-16h87c16 0 28 -20 45 -50c19 -34 43 -75 76 -92zM415 344c-9 16 -23 40 -29 41h-13v-103h82c-16 20 -29 42 -40 62zM258 419
v-16h23v16c0 6 -5 11 -11 11s-12 -5 -12 -11zM104 101c19 0 35 16 35 35s-16 35 -35 35s-35 -16 -35 -35s16 -35 35 -35zM401 101c19 0 35 16 35 35s-16 35 -35 35s-36 -16 -36 -35s17 -35 36 -35zM494 172v0v75c-8 4 -15 11 -22 17h-108c-5 0 -9 4 -9 9v112h-63h-2h-41h-1
h-194c-20 0 -36 -16 -36 -36v-177c0 -13 5 -18 36 -18v0c7 21 27 35 50 35s43 -14 50 -35h196c7 21 28 35 51 35s43 -14 50 -35h7c31 0 36 5 36 18z" />
    <glyph glyph-name="uniF102" unicode="&#xf102;" 
d="M256 238c25 0 46 -21 46 -46s-21 -46 -46 -46s-46 21 -46 46s21 46 46 46zM512 192c0 -32 -21 -61 -57 -83c10 -42 4 -76 -18 -98c-15 -15 -36 -23 -62 -23c-12 0 -23 2 -36 5c-22 -36 -51 -57 -83 -57s-61 21 -83 57c-13 -3 -24 -5 -36 -5c-26 0 -47 8 -62 23
c-22 22 -27 57 -18 98c-36 22 -57 51 -57 83s21 61 57 83c-9 41 -4 76 18 98c15 15 36 23 62 23c12 0 23 -2 36 -5c22 36 51 57 83 57s61 -21 83 -57c13 3 24 5 36 5c26 0 47 -8 62 -23c22 -22 27 -58 18 -99c37 -23 57 -51 57 -82zM375 378c-9 0 -18 -1 -27 -3
c10 -19 18 -42 24 -67c23 -6 44 -13 63 -22c1 -1 2 -1 3 -2c7 32 3 59 -14 76c-11 11 -28 18 -49 18zM368 192c0 16 -1 31 -2 46c-10 11 -20 22 -31 33s-22 21 -34 31c-15 1 -30 2 -45 2c-16 0 -31 -1 -46 -2c-12 -10 -22 -20 -33 -31s-22 -22 -31 -33c-1 -15 -2 -30 -2 -46
s1 -31 2 -46c9 -11 20 -22 31 -33s21 -21 33 -31c15 -1 30 -2 46 -2s31 1 46 2c12 10 22 20 33 31s22 22 31 33c1 15 2 30 2 46zM348 284c5 -5 10 -9 14 -14c-1 8 -3 15 -5 23c-8 2 -15 4 -23 5zM309 319c15 -2 29 -3 43 -6c-6 21 -13 40 -22 57c-18 -5 -38 -14 -57 -25
c12 -8 24 -16 36 -26zM276 322c-7 5 -13 9 -20 13c-7 -4 -13 -8 -20 -13h20h20zM203 319c12 9 24 18 36 26c-19 11 -39 20 -57 25c-9 -16 -16 -36 -22 -57c14 3 28 4 43 6zM178 298c-8 -1 -15 -3 -23 -5c-2 -8 -4 -15 -5 -23c4 5 9 9 14 14s9 10 14 14zM129 245
c2 15 3 29 6 43c-21 -6 -41 -13 -57 -22c5 -18 14 -37 25 -56c8 12 17 23 26 35zM126 212c-5 -7 -9 -13 -13 -20c4 -7 8 -13 13 -20v20v20zM129 139c-9 12 -18 23 -26 35c-11 -19 -20 -38 -25 -56c16 -9 36 -16 57 -22c-3 14 -4 28 -6 43zM150 114c1 -8 3 -15 5 -23
c8 -2 15 -4 23 -5c-5 4 -9 9 -14 14s-10 9 -14 14zM203 65c-15 2 -29 3 -43 6c6 -21 13 -41 22 -57c18 5 38 14 57 25c-12 8 -24 17 -36 26zM236 62c7 -5 13 -9 20 -13c7 4 13 8 20 13h-20h-20zM309 65c-12 -9 -24 -18 -36 -26c19 -11 38 -20 56 -25c9 16 17 36 23 57
c-14 -3 -28 -4 -43 -6zM334 86c8 1 15 3 23 5c2 8 4 15 5 23c-4 -5 -9 -9 -14 -14s-9 -10 -14 -14zM383 139c-2 -15 -3 -29 -6 -43c21 6 41 13 57 22c-1 3 -1 5 -2 8c-5 16 -13 33 -22 49c-8 -12 -17 -24 -27 -36zM386 172c5 7 9 13 13 20c-4 7 -8 13 -13 20v-20v-20z
M383 245c9 -12 18 -23 26 -35c11 19 20 38 25 56c-2 1 -5 3 -7 4c-15 7 -32 13 -50 18c3 -14 4 -28 6 -43zM256 430c-24 0 -46 -16 -64 -44c21 -7 42 -17 64 -30c22 13 43 23 64 30c-18 28 -40 44 -64 44zM88 360c-17 -17 -21 -44 -14 -76c19 10 41 18 66 24
c6 25 14 48 24 67c-9 2 -18 3 -27 3c-21 0 -38 -7 -49 -18zM18 192c0 -24 16 -46 44 -64c7 20 16 42 29 64c-13 22 -22 44 -29 64c-28 -18 -44 -40 -44 -64zM137 6c9 0 18 1 27 3c-10 19 -18 42 -24 67c-25 6 -47 14 -66 24c-7 -32 -3 -59 14 -76c11 -11 28 -18 49 -18z
M256 -46c24 0 46 16 64 44c-21 7 -42 17 -64 30c-22 -13 -43 -23 -64 -30c18 -28 40 -44 64 -44zM424 24c16 16 22 43 15 76c-19 -10 -42 -18 -67 -24c-6 -25 -14 -48 -24 -67c10 -2 18 -3 27 -3c21 0 38 7 49 18zM450 128c28 18 44 40 44 64c0 23 -16 45 -44 64
c-7 -21 -17 -42 -30 -64c12 -20 22 -40 29 -60c0 -1 1 -3 1 -4z" />
    <glyph glyph-name="uniF103" unicode="&#xf103;" 
d="M470 332c27 -40 42 -88 42 -140c0 -141 -115 -256 -256 -256s-256 115 -256 256s115 256 256 256c52 0 101 -16 141 -43c9 8 21 14 34 14c28 0 52 -23 52 -52c0 -13 -5 -26 -13 -35zM431 401c-19 0 -33 -15 -33 -34s14 -34 33 -34s34 15 34 34s-15 34 -34 34zM256 -46
c131 0 238 107 238 238c0 48 -15 92 -39 129c-7 -4 -15 -6 -24 -6c-29 0 -51 24 -51 52c0 9 2 17 6 24c-37 24 -82 39 -130 39c-131 0 -238 -107 -238 -238s107 -238 238 -238zM256 316c68 0 123 -55 123 -123s-55 -123 -123 -123s-123 55 -123 123s55 123 123 123zM318 184
v18h-53v52h-18v-52h-52v-18h52v-53h18v53h53z" />
    <glyph glyph-name="uniF104" unicode="&#xf104;" 
d="M480 416c21 -21 32 -49 32 -78s-11 -57 -32 -78l-292 -292c-21 -21 -49 -32 -78 -32s-57 11 -78 32s-32 49 -32 78s11 57 32 78l292 292c21 21 49 32 78 32s57 -11 78 -32zM262 328l-132 -132l130 -130l132 132zM175 -19l72 73l-129 129l-73 -72c-17 -17 -27 -40 -27 -65
s10 -48 27 -65s40 -27 65 -27s48 10 65 27zM467 273c17 17 27 40 27 65s-10 48 -27 65s-40 27 -65 27s-48 -10 -65 -27l-62 -62l130 -130zM183 176c-6 6 -9 14 -9 22s3 15 9 21s13 9 21 9s16 -3 22 -9s9 -13 9 -21s-3 -16 -9 -22s-14 -9 -22 -9s-15 3 -21 9zM196 206
c-5 -5 -5 -12 0 -17c2 -2 5 -3 8 -3s7 1 9 3c5 5 5 12 0 17c-2 2 -6 4 -9 4s-6 -2 -8 -4zM260 172c8 0 15 -2 21 -8s9 -14 9 -22s-3 -15 -9 -21s-13 -9 -21 -9s-16 3 -22 9c-12 12 -12 31 0 43c6 6 14 8 22 8zM268 134c5 5 5 12 0 17c-2 2 -5 3 -8 3s-7 -1 -9 -3
c-5 -5 -5 -12 0 -17c2 -2 6 -4 9 -4s6 2 8 4zM256 219c-8 0 -16 2 -22 8s-9 14 -9 22s3 15 9 21s14 9 22 9s15 -3 21 -9s9 -13 9 -21s-3 -16 -9 -22s-13 -8 -21 -8zM247 257c-5 -5 -5 -12 0 -17c2 -2 6 -3 9 -3s6 1 8 3c5 5 5 12 0 17c-2 2 -5 4 -8 4s-7 -2 -9 -4zM290 172
c-6 6 -9 14 -9 22s3 15 9 21s13 9 21 9s15 -3 21 -9c12 -12 12 -31 0 -43c-6 -6 -13 -9 -21 -9s-15 3 -21 9zM302 202c-5 -5 -5 -12 0 -17c2 -2 6 -4 9 -4s6 2 8 4c5 5 5 12 0 17c-2 2 -5 4 -8 4s-7 -2 -9 -4z" />
    <glyph glyph-name="uniF105" unicode="&#xf105;" 
d="M473 282c19 0 35 -15 35 -34s-16 -35 -35 -35s-34 16 -34 35c0 5 0 9 2 13l-147 136l82 -151l-15 -8l-56 102l78 -246h1c19 0 34 -16 34 -35s-15 -34 -34 -34s-35 15 -35 34c0 13 7 24 17 30l-88 275l42 -359l-18 -2l-43 372l-52 -320c11 -6 18 -17 18 -30
c0 -19 -16 -35 -35 -35s-34 16 -34 35s14 35 33 35l55 330l-66 -144l-16 7l65 143l-166 -153l-12 13l166 153l-146 -64c0 -19 -15 -35 -34 -35s-35 16 -35 35s16 34 35 34c13 0 23 -7 29 -17l193 85v0v1l7 -1v0v0l197 -19l-1 -17l-140 13l84 -35l-6 -16l-94 39l149 -137
c6 4 12 7 20 7zM401 59c0 9 -8 17 -17 17s-17 -8 -17 -17s8 -17 17 -17s17 8 17 17zM35 328c9 0 17 8 17 17s-8 17 -17 17s-17 -8 -17 -17s8 -17 17 -17zM190 8c9 0 17 8 17 17s-8 17 -17 17s-17 -8 -17 -17s8 -17 17 -17zM473 231c9 0 17 8 17 17s-8 17 -17 17
s-17 -8 -17 -17s8 -17 17 -17zM297 -32c0 12 6 18 18 18s17 -6 17 -18s-5 -18 -17 -18s-18 6 -18 18zM140 222c0 12 6 18 18 18s18 -6 18 -18s-6 -18 -18 -18s-18 6 -18 18zM14 231c0 12 6 18 18 18s18 -6 18 -18s-6 -18 -18 -18s-18 6 -18 18zM373 213c0 12 6 18 18 18
s18 -6 18 -18s-6 -18 -18 -18s-18 6 -18 18zM418 365c0 12 6 18 18 18s18 -6 18 -18s-6 -18 -18 -18s-18 6 -18 18zM476 417c0 12 6 17 18 17s18 -5 18 -17s-6 -18 -18 -18s-18 6 -18 18z" />
    <glyph glyph-name="uniF106" unicode="&#xf106;" 
d="M59 188c-50 -29 -68 -90 -44 -141c-34 67 -9 150 57 188c16 9 33 14 50 17c-6 16 -9 34 -9 53c0 76 59 138 134 143c-56 -5 -99 -52 -99 -109c0 -55 42 -101 96 -108v-27c-9 -5 -18 -14 -19 -25l-23 -21c-32 45 -94 58 -143 30zM344 -3c50 -29 113 -13 145 34
c-41 -64 -126 -84 -192 -46c-17 10 -31 22 -42 36c-11 -14 -24 -26 -40 -35c-66 -38 -151 -17 -192 46c32 -47 95 -62 145 -33c46 27 65 82 48 131l20 19c6 -4 12 -7 20 -7c7 0 15 3 20 7l20 -20c-18 -49 2 -105 48 -132zM440 233c66 -38 91 -122 56 -189
c25 51 7 113 -43 142c-49 28 -110 14 -142 -30l-22 22c-1 12 -9 22 -18 27v26c45 7 94 53 94 108c0 57 -45 105 -101 109c75 -5 135 -67 135 -143c0 -19 -4 -37 -11 -54c18 -2 35 -8 52 -18zM207 283c-5 4 -9 8 -14 12c19 13 40 21 65 21s47 -8 66 -21l-13 -13
c-15 10 -33 16 -53 16c-19 0 -36 -6 -51 -15zM368 114c-14 -20 -33 -33 -55 -41l-3 18c17 7 32 18 43 34c11 15 16 33 17 50c6 2 12 3 18 5c0 -23 -6 -46 -20 -66zM162 125c11 -16 25 -27 41 -34c-1 -6 -1 -13 -1 -19c-21 8 -41 23 -55 43s-20 43 -19 66c6 -1 12 -3 18 -4
c0 -18 5 -36 16 -52z" />
    <glyph glyph-name="uniF107" unicode="&#xf107;" 
d="M512 269l-14 -14l-27 27l-321 -320c-17 -17 -39 -26 -62 -26s-45 9 -62 26c-34 34 -34 90 0 124l320 321l-27 27l14 14l27 -27v0l124 -125v0zM305 145l152 151l-97 97l-93 -94l48 -48l-14 -14l-48 48l-21 -20l18 -18l-14 -13l-18 17l-16 -17l48 -48l-14 -14l-48 48
l-19 -19l19 -19l-14 -14l-19 19l-42 -42h192z" />
    <glyph glyph-name="uniF108" unicode="&#xf108;" 
d="M512 183h-46c-2 -51 -23 -97 -56 -132l34 -33l-13 -13l-33 33c-35 -32 -82 -52 -133 -54v-48h-18v48c-51 2 -97 22 -132 54l-33 -34l-13 13l33 34c-33 35 -52 81 -55 132h-47v18h47c2 51 22 97 54 133l-33 32l13 13l32 -32c35 33 83 54 134 56v45h18v-45
c52 -2 97 -22 133 -55l32 32l13 -13l-32 -32c33 -36 53 -83 55 -134h46v-18zM256 1c106 0 192 86 192 192s-86 192 -192 192c-51 0 -99 -20 -135 -56s-57 -85 -57 -136c0 -106 86 -192 192 -192zM199 315c36 0 66 -30 66 -66s-30 -65 -66 -65s-65 29 -65 65s29 66 65 66z
M199 202c26 0 48 21 48 47s-22 48 -48 48s-47 -22 -47 -48s21 -47 47 -47zM345 280c0 -44 20 -67 58 -67v-18c-48 0 -76 31 -76 85h18zM291 87c0 27 25 67 70 67v-17c-34 0 -52 -32 -52 -50h-18zM212 83c0 20 9 38 24 51l11 -14c-14 -12 -18 -26 -18 -37c0 -13 4 -26 11 -34
l-14 -11c-10 11 -14 28 -14 45z" />
    <glyph glyph-name="uniF109" unicode="&#xf109;" horiz-adv-x="377" 
d="M367 421c5 0 10 -4 10 -9v-467c0 -5 -5 -9 -10 -9h-358c-5 0 -9 4 -9 9v467c0 5 4 9 9 9h93c9 17 28 27 47 27h82c19 0 37 -10 46 -27h90zM108 332c-5 0 -9 4 -9 9v14h-30v-352h241v352h-34v-14c0 -5 -4 -9 -9 -9h-159zM149 430c-14 0 -27 -9 -32 -22h-1c0 -1 1 -3 1 -4
v-54h141v66v1c-6 8 -17 13 -27 13h-82zM358 -46v449h-82v-29h43c5 0 9 -5 9 -10v-370c0 -5 -4 -10 -9 -10h-259c-5 0 -9 5 -9 10v370c0 5 4 10 9 10h39v29h-81v-449h340zM117 254c-5 0 -9 4 -9 9s4 10 9 10h145c5 0 9 -5 9 -10s-4 -9 -9 -9h-145zM117 217c-5 0 -9 5 -9 10
s4 9 9 9h145c5 0 9 -4 9 -9s-4 -10 -9 -10h-145zM117 180c-5 0 -9 5 -9 10s4 9 9 9h145c5 0 9 -4 9 -9s-4 -10 -9 -10h-145zM117 143c-5 0 -9 5 -9 10s4 9 9 9h145c5 0 9 -4 9 -9s-4 -10 -9 -10h-145zM117 42c-5 0 -9 4 -9 9s4 9 9 9h145c5 0 9 -4 9 -9s-4 -9 -9 -9h-145z
M117 106c-5 0 -9 5 -9 10s4 9 9 9h61c5 0 10 -4 10 -9s-5 -10 -10 -10h-61z" />
    <glyph glyph-name="uniF10A" unicode="&#xf10a;" 
d="M502 343c13 -13 13 -34 0 -47c-6 -6 -14 -9 -23 -9s-18 3 -24 9l-7 8l-107 -107c-10 -10 -23 -17 -37 -23c2 -3 4 -6 6 -8l120 -120l-8 -8l26 -26l15 15l13 -13l-43 -42l-12 13l15 15l-26 26l-8 -8l-116 116c-8 8 -19 13 -32 19c-10 -5 -19 -9 -25 -15l-119 -120l-8 8
l-26 -26l14 -15l-12 -12l-42 42l12 12l15 -15l27 26l-8 9l115 115c3 3 6 7 9 11c-13 6 -24 12 -32 20l-110 110l-7 -7c-6 -6 -15 -9 -24 -9s-17 3 -23 9s-10 15 -10 24s4 17 10 23l95 96c12 13 35 12 47 0c13 -13 13 -34 0 -47l-8 -8l107 -106c2 -2 3 -3 4 -5c0 1 1 0 2 1
l110 111l-7 7c-13 13 -13 34 0 47c13 12 34 12 47 0zM22 309c6 -6 16 -6 22 0l95 95c6 6 6 16 0 22c-3 3 -7 5 -11 5s-8 -2 -11 -5l-95 -95c-3 -3 -5 -7 -5 -11s2 -8 5 -11zM132 372l-56 -56l90 -91l57 56zM186 205c7 -7 17 -12 28 -17c5 9 9 20 13 30c6 14 11 28 18 40
c-2 3 -4 5 -6 7l-4 4l-56 -56zM329 210l4 3l-56 56l-8 -7c-11 -11 -18 -30 -26 -50s-16 -42 -29 -57l4 -4c13 12 34 21 55 29s43 17 56 30zM345 226l90 90l-56 56l-90 -90zM490 309c6 6 6 16 0 22l-95 95c-3 3 -7 5 -11 5s-8 -2 -11 -5c-6 -6 -6 -16 0 -22l95 -95
c6 -6 16 -6 22 0z" />
    <glyph glyph-name="uniF10B" unicode="&#xf10b;" horiz-adv-x="447" 
d="M231 193c106 -43 216 -88 216 -257h-19c0 156 -99 197 -204 240c-110 45 -224 91 -224 272h19c0 -169 103 -211 212 -255zM410 341c6 14 10 30 13 47h-350v19h353c2 13 2 26 2 41h19c0 -152 -80 -209 -171 -250c-3 2 -8 5 -8 5c-3 2 -7 5 -10 7c31 13 61 29 86 48h-150
v18h172c14 13 25 29 35 47h-282v18h291zM36 34c-6 -14 -10 -30 -13 -47h348v-18h-351c-1 -10 -1 -21 -1 -33h-19c0 142 78 197 166 236c4 -3 8 -5 12 -8c2 -1 4 -3 6 -4c-28 -12 -54 -26 -78 -42h144v-19h-168c-15 -13 -27 -28 -37 -46h270v-19h-279z" />
    <glyph glyph-name="uniF10C" unicode="&#xf10c;" 
d="M489 425c20 -20 34 -68 12 -90l-122 -121l28 -29l-15 -15l-29 29l-227 -229c-2 -2 -6 -3 -9 -3c-1 0 -54 1 -111 -28c-2 -1 -3 -1 -5 -1c-4 0 -7 2 -9 5c-3 5 -2 10 2 14c11 10 19 64 21 109c0 3 2 5 4 7l229 230l-27 27l16 16l31 -31l122 121c10 10 26 14 46 10
c16 -3 33 -11 43 -21zM123 -11l224 225l-44 44l-209 -209l-16 15l210 210l-14 14l-227 -227c-1 -17 -4 -59 -13 -90c41 16 76 18 89 18z" />
    <glyph glyph-name="uniF10D" unicode="&#xf10d;" horiz-adv-x="386" 
d="M329 118c-34 -34 -79 -54 -127 -56v-49h86v-19h-86v-58h-18v58h-86v19h86v49c-48 2 -94 22 -128 56c-75 75 -75 198 0 273c36 36 85 57 137 57s100 -21 136 -57c75 -75 75 -198 0 -273zM69 379c-68 -68 -68 -180 0 -248c33 -33 77 -51 124 -51s90 18 123 51
c68 68 68 180 0 248c-33 33 -76 51 -123 51s-91 -18 -124 -51z" />
    <glyph glyph-name="uniF10E" unicode="&#xf10e;" 
d="M465 369c26 0 47 -21 47 -47v-275c0 -26 -21 -47 -47 -47h-418c-26 0 -47 21 -47 47v275c0 26 21 47 47 47h88v23c0 31 25 56 56 56h130c31 0 55 -25 55 -56v-23h89zM154 392v-23h204v23c0 21 -16 37 -37 37h-130c-21 0 -37 -16 -37 -37zM493 47v275c0 15 -13 28 -28 28
h-418c-15 0 -28 -13 -28 -28v-275c0 -15 13 -28 28 -28h418c15 0 28 13 28 28zM370 222c2 0 4 -2 4 -4v-57c0 -2 -2 -4 -4 -4h-81v-81c0 -2 -2 -4 -4 -4h-57c-2 0 -4 2 -4 4v81h-81c-2 0 -4 2 -4 4v57c0 2 2 4 4 4h81v81c0 2 2 4 4 4h57c2 0 4 -2 4 -4v-81h81z" />
    <glyph glyph-name="uniF10F" unicode="&#xf10f;" 
d="M297 414c-55 20 -114 17 -167 -8s-93 -69 -113 -124l-17 6c21 60 65 107 122 134s121 29 181 8c99 -36 151 -145 115 -244c-14 -39 -42 -70 -79 -88c-21 -10 -43 -15 -66 -15c-18 0 -36 3 -53 9c-32 11 -57 35 -71 65s-16 64 -5 96c19 53 78 81 131 62l-6 -17
c-44 16 -92 -7 -108 -51c-10 -27 -8 -56 4 -82s34 -46 61 -56c34 -12 72 -11 105 5s58 44 70 78c32 90 -14 190 -104 222zM495 182l17 -6c-21 -60 -65 -108 -122 -135c-32 -15 -67 -22 -101 -22c-27 0 -54 5 -80 14c-99 36 -151 145 -115 244c14 39 42 70 79 88s80 20 119 6
c32 -11 57 -35 71 -65s16 -64 5 -96c-19 -53 -78 -81 -131 -62l6 17c44 -16 92 7 108 51c10 27 8 56 -4 82s-34 46 -61 56c-34 12 -72 11 -105 -5s-58 -44 -70 -78c-32 -90 14 -189 104 -221c55 -20 115 -17 168 8s92 69 112 124zM449 372v19h-19v18h19v19h18v-19h19v-18
h-19v-19h-18zM473 287h-9v12h-12v9h12v12h9v-12h12v-9h-12v-12zM482 60v-12h12v-9h-12v-13h-9v13h-12v9h12v12h9zM40 139h-9v12h-12v9h12v12h9v-12h12v-9h-12v-12zM52 425v5h-5v9h5v6h9v-6h6v-9h-6v-5h-9zM378 428v5h-6v9h6v6h9v-6h5v-9h-5v-5h-9zM424 17v-5h5v-9h-5v-6h-9
v6h-6v9h6v5h9zM130 52v-19h19v-18h-19v-19h-18v19h-19v18h19v19h18zM49 81v-5h5v-9h-5v-6h-9v6h-6v9h6v5h9zM217 232c0 23 18 41 41 41s42 -18 42 -41s-19 -42 -42 -42s-41 19 -41 42zM282 232c0 13 -11 23 -24 23s-23 -10 -23 -23s10 -24 23 -24s24 11 24 24z" />
    <glyph glyph-name="uniF110" unicode="&#xf110;" horiz-adv-x="509" 
d="M506 27l3 -19l-84 -17l-77 147l-44 -7c4 -13 5 -26 5 -40c0 -85 -69 -155 -154 -155s-155 70 -155 155c0 76 55 139 127 152l-17 83c-28 6 -50 30 -50 60c0 34 28 62 62 62s61 -28 61 -62c0 -31 -24 -57 -54 -61l42 -194l188 27l76 -145zM79 386c0 -23 20 -42 43 -42
s42 19 42 42s-19 43 -42 43s-43 -20 -43 -43zM290 91c0 13 -2 25 -5 37l-129 -19l-25 115c-64 -11 -112 -66 -112 -133c0 -75 61 -136 136 -136s135 61 135 136zM274 265l3 -19l-126 -19l-3 19z" />
    <glyph glyph-name="uniF111" unicode="&#xf111;" horiz-adv-x="501" 
d="M413 200h88v-18h-80l-31 -238c-1 -5 -4 -8 -9 -8v0c-5 0 -9 3 -9 8l-41 422l-47 -304c-1 -4 -4 -8 -8 -8h-1c-4 0 -7 4 -8 8l-28 171l-14 -45c-1 -4 -5 -6 -9 -6v0h-216v18h210l23 75c1 4 5 7 9 7s7 -4 8 -8l25 -152l49 318c1 5 4 8 9 8s9 -3 9 -8l40 -415l22 167
c1 5 4 8 9 8v0z" />
    <glyph glyph-name="uniF112" unicode="&#xf112;" 
d="M365 448c78 0 147 -75 147 -162c0 -84 -79 -154 -149 -215c-50 -44 -96 -84 -98 -119h-18c0 34 -48 77 -99 122c-69 61 -148 131 -148 212c0 77 53 160 137 160c39 0 78 -17 118 -51c33 35 71 53 110 53z" />
    <glyph glyph-name="uniF113" unicode="&#xf113;" horiz-adv-x="432" 
d="M423 448c5 0 9 -4 9 -9v-494c0 -5 -4 -9 -9 -9h-414c-5 0 -9 4 -9 9v494c0 5 4 9 9 9h414zM414 -46v476h-396v-476h396zM95 101c-25 0 -45 20 -45 45v208c0 25 20 45 45 45h242c25 0 45 -20 45 -45v-208c0 -25 -20 -45 -45 -45h-242zM337 119c15 0 27 12 27 27v94h-45
l-17 -87c-1 -4 -5 -7 -9 -7v0c-4 0 -8 3 -9 7l-22 145l-23 -100c-1 -4 -5 -7 -9 -7v0c-4 0 -7 3 -8 7l-15 56l-4 -8c-1 -3 -5 -6 -8 -6v0l-127 1v-95c0 -15 12 -27 27 -27h242zM95 381c-15 0 -27 -12 -27 -27v-95l121 -1l13 27c2 3 5 5 9 5s7 -3 8 -7l11 -45l25 109
c1 4 5 7 10 7c4 0 7 -4 8 -8l21 -139l9 44c1 4 5 7 9 7h52v96c0 15 -12 27 -27 27h-242zM91 -15c-23 0 -42 19 -42 42s19 43 42 43s43 -20 43 -43s-20 -42 -43 -42zM91 52c-13 0 -24 -12 -24 -25s11 -24 24 -24s25 11 25 24s-12 25 -25 25zM198 30c0 12 6 18 18 18
s18 -6 18 -18s-6 -18 -18 -18s-18 6 -18 18zM270 30c0 12 6 18 18 18s18 -6 18 -18s-6 -18 -18 -18s-18 6 -18 18zM342 30c0 12 6 18 18 18s18 -6 18 -18s-6 -18 -18 -18s-18 6 -18 18z" />
    <glyph glyph-name="uniF114" unicode="&#xf114;" 
d="M369 448c78 0 143 -76 143 -159c0 -147 -251 -254 -256 -345c0 89 -256 202 -256 345c0 81 54 157 133 157c37 0 78 -16 123 -56c37 41 76 58 113 58zM349 87c68 59 145 127 145 202s-59 141 -125 141c-35 0 -68 -19 -99 -53l-13 -13l-13 12c-38 34 -76 52 -111 52
c-31 0 -61 -14 -82 -41c-21 -26 -33 -62 -33 -98c0 -71 76 -139 144 -199c39 -34 75 -65 95 -96c20 30 54 60 92 93z" />
    <glyph glyph-name="uniF115" unicode="&#xf115;" 
d="M479 353c18 0 33 -15 33 -33s-15 -32 -33 -32h-126c-10 0 -20 4 -26 12c-6 -8 -15 -12 -25 -12h-127c-12 0 -23 7 -29 17c0 -1 -1 -2 -1 -2c-6 -6 -14 -9 -23 -9s-17 3 -23 9l-89 90c-6 6 -10 14 -10 23s4 17 10 23c12 12 34 12 46 0l89 -90c2 -2 5 -4 6 -7
c6 7 14 11 24 11h127c10 0 19 -5 25 -13c6 8 16 13 26 13h126zM132 316c3 3 5 6 5 10s-2 8 -5 11l-89 89c-3 3 -6 4 -10 4s-8 -1 -11 -4s-4 -6 -4 -10s1 -8 4 -11l90 -89c5 -5 15 -5 20 0zM302 306c8 0 14 6 14 14s-6 15 -14 15h-127c-8 0 -15 -7 -15 -15s7 -14 15 -14h127z
M479 306c8 0 15 6 15 14s-7 15 -15 15h-126c-8 0 -15 -7 -15 -15s7 -14 15 -14h126zM14 240v18h481v-18h-128v-183c15 -4 26 -18 26 -34c0 -20 -16 -36 -36 -36s-35 16 -35 36c0 16 11 30 26 34v183h-207v-183c15 -4 26 -18 26 -34c0 -20 -15 -36 -35 -36s-36 16 -36 36
c0 16 12 30 27 34v183h-109zM149 23c0 10 -7 17 -17 17s-18 -7 -18 -17s8 -18 18 -18s17 8 17 18zM375 23c0 10 -8 17 -18 17s-17 -7 -17 -17s7 -18 17 -18s18 8 18 18z" />
    <glyph glyph-name="uniF116" unicode="&#xf116;" 
d="M256 448c141 0 256 -115 256 -256s-115 -256 -256 -256s-256 115 -256 256s115 256 256 256zM256 -45c131 0 237 106 237 237s-106 237 -237 237s-237 -106 -237 -237s106 -237 237 -237zM349 201v103h19v-231h-19v109h-186v-109h-19v231h19v-103h186z" />
    <glyph glyph-name="uniF117" unicode="&#xf117;" horiz-adv-x="405" 
d="M280 201l125 -207v-3c0 -30 -25 -55 -55 -55h-295c-30 0 -55 25 -55 55v3l129 207v229h-37v18h221v-18h-33v-229zM147 196l-33 -53c10 -5 26 -11 41 -12c9 0 18 5 27 12c11 8 24 17 40 15c14 -2 25 -9 35 -16c8 -6 15 -10 22 -11s13 2 18 6l-35 59v234h-115v-232v-2z" />
    <glyph glyph-name="uniF118" unicode="&#xf118;" horiz-adv-x="472" 
d="M236 448c130 0 236 -106 236 -236v-276h-140v277c0 53 -44 96 -97 96s-96 -43 -96 -96v-277h-139v276c0 130 106 236 236 236zM235 327c63 0 115 -51 115 -114v-158h104v157c0 120 -98 218 -218 218s-218 -98 -218 -218v-157h103v158c0 63 51 114 114 114z" />
    <glyph glyph-name="uniF119" unicode="&#xf119;" 
d="M364 448h148v-149h-19v117l-112 -112c36 -39 58 -91 58 -148c0 -121 -98 -220 -219 -220s-220 99 -220 220s99 219 220 219c57 0 109 -21 148 -57l111 111h-115v19zM220 -45c111 0 200 90 200 201s-89 200 -200 200s-201 -89 -201 -200s90 -201 201 -201z" />
    <glyph glyph-name="uniF11A" unicode="&#xf11a;" horiz-adv-x="501" 
d="M370 192l131 -83l-68 -108l-118 75v-140h-128v139l-117 -75l-69 108l130 83l-131 84l68 108l119 -75v140h128v-139l116 75l70 -108z" />
    <glyph glyph-name="uniF11B" unicode="&#xf11b;" horiz-adv-x="501" 
d="M370 192l131 -83l-68 -108l-118 75v-140h-128v139l-117 -75l-69 108l130 84l-131 83l68 108l119 -75v140h128v-139l117 75l69 -108zM427 26l49 78l-140 88l140 90l-50 77l-129 -83v154h-92v-154l-131 82l-49 -78l140 -88l-140 -90l50 -77l130 83v-154h92v154z" />
    <glyph glyph-name="uniF11C" unicode="&#xf11c;" 
d="M503 263c5 0 9 -4 9 -9v-124c0 -5 -4 -9 -9 -9h-176v-176c0 -5 -4 -9 -9 -9h-124c-5 0 -9 4 -9 9v176h-176c-5 0 -9 4 -9 9v124c0 5 4 9 9 9h176v176c0 5 4 9 9 9h124c5 0 9 -4 9 -9v-176h176z" />
    <glyph glyph-name="uniF11D" unicode="&#xf11d;" 
d="M503 263c5 0 9 -4 9 -9v-124c0 -5 -4 -9 -9 -9h-176v-176c0 -5 -4 -9 -9 -9h-124c-5 0 -9 4 -9 9v176h-176c-5 0 -9 4 -9 9v124c0 2 1 4 3 6s4 3 6 3h176v176c0 5 4 9 9 9h124c5 0 9 -4 9 -9v-176h176zM494 139v0v106h-176c-5 0 -9 4 -9 9v176h-106v-176
c0 -5 -4 -9 -9 -9h-176v-106h176c5 0 9 -4 9 -9v-176h106v176c0 5 4 9 9 9h176z" />
    <glyph glyph-name="uniF11E" unicode="&#xf11e;" 
d="M408 302h73h29v-18h-29c-5 -115 -29 -210 -226 -210s-221 95 -226 210h-29v18h28h296l137 137c6 6 13 9 21 9s15 -3 21 -9c12 -12 12 -30 0 -42zM474 426l-125 -124h33l108 108c5 5 5 11 0 16c-2 2 -5 4 -8 4s-6 -2 -8 -4zM255 92c181 0 202 79 207 192h-415
c5 -113 27 -192 208 -192z" />
    <glyph glyph-name="uniF11F" unicode="&#xf11f;" horiz-adv-x="369" 
d="M360 178c0 -67 -39 -126 -96 -154h41h2c2 -1 50 -21 50 -75v-3v-10h-335v13c0 54 48 74 50 75h2h40c-25 12 -47 32 -63 54h-51v18h251v-18h-177c28 -32 69 -53 115 -53c84 0 153 69 153 153c0 18 -3 34 -9 50c-5 -2 -10 -3 -16 -3c-22 0 -40 14 -48 33l-45 -109l-91 37
l95 233l13 -5l14 34l65 -27l-14 -33l13 -6l-23 -57c7 3 13 5 21 5c29 0 52 -23 52 -52c0 -17 -8 -31 -20 -41c7 -18 11 -38 11 -59zM265 425l-7 -18l32 -13l6 18zM214 172l82 201l-58 23l-81 -200zM283 278c0 -19 15 -35 34 -35s34 16 34 35s-15 34 -34 34s-34 -15 -34 -34z
M339 -46c-3 34 -30 49 -37 52h-225c-7 -3 -34 -18 -37 -52h299z" />
    <glyph glyph-name="uniF120" unicode="&#xf120;" horiz-adv-x="470" 
d="M413 50c31 0 57 -26 57 -57s-26 -57 -57 -57s-57 26 -57 57c0 13 5 24 12 34l-101 93c-9 -6 -20 -10 -32 -10s-23 4 -32 10l-101 -93c7 -10 12 -21 12 -34c0 -31 -26 -57 -57 -57s-57 26 -57 57s26 57 57 57c11 0 21 -4 30 -9l101 94c-6 9 -10 20 -10 32
c0 28 21 51 47 56v112c-26 5 -47 28 -47 56c0 31 26 57 57 57s57 -26 57 -57c0 -28 -20 -51 -46 -56v-112c26 -5 46 -28 46 -56c0 -12 -4 -23 -10 -32l101 -94c9 5 19 9 30 9zM199 391c0 -20 16 -36 36 -36s36 16 36 36s-16 36 -36 36s-36 -16 -36 -36zM57 -43
c20 0 36 16 36 36s-16 36 -36 36s-36 -16 -36 -36s16 -36 36 -36zM199 167c0 -20 16 -36 36 -36s36 16 36 36s-16 36 -36 36s-36 -16 -36 -36zM413 -43c20 0 36 16 36 36s-16 36 -36 36s-36 -16 -36 -36s16 -36 36 -36z" />
    <glyph glyph-name="uniF121" unicode="&#xf121;" horiz-adv-x="496" 
d="M440 48c31 0 56 -25 56 -56s-25 -56 -56 -56s-56 25 -56 56c0 13 4 25 12 35l-104 95c-9 -6 -20 -10 -32 -10s-23 4 -32 10l-104 -95c8 -10 13 -22 13 -35c0 -31 -25 -56 -56 -56s-57 25 -57 56s26 56 57 56c11 0 21 -3 30 -9l104 96c-7 9 -11 21 -11 33c0 5 1 10 2 14
l-120 53c-9 -12 -23 -19 -38 -19c-7 0 -14 1 -20 4c-12 5 -20 14 -25 26s-4 25 1 37c8 17 25 28 44 28c7 0 13 -1 19 -4c21 -9 33 -33 27 -55l119 -54c6 9 14 16 23 20l-24 118h-2c-26 0 -50 19 -55 45c-3 15 1 30 9 42s20 21 35 24c4 1 7 1 11 1c26 0 50 -19 55 -45
c3 -15 0 -30 -8 -42c-7 -10 -16 -17 -27 -21l24 -116h6c16 0 31 -7 41 -18l90 71c-13 23 -8 54 14 71c10 8 22 12 35 12c17 0 33 -8 44 -21c9 -12 13 -26 11 -41s-8 -28 -20 -37c-10 -8 -22 -13 -35 -13c-14 0 -28 6 -38 15l-91 -73c3 -7 5 -14 5 -22c0 -12 -4 -24 -11 -33
l104 -96c9 6 20 9 31 9zM416 334c-16 -13 -19 -37 -6 -53c7 -9 18 -14 30 -14c9 0 16 3 23 8c8 6 13 15 14 25s-2 20 -8 28c-7 9 -17 14 -29 14c-9 0 -17 -3 -24 -8zM173 384c4 -17 19 -30 37 -30c3 0 6 0 8 1c10 2 18 8 24 16s7 18 5 28c-4 18 -19 31 -37 31
c-3 0 -5 0 -7 -1c-10 -2 -18 -8 -24 -16s-8 -19 -6 -29zM48 234c12 0 21 7 26 18c7 15 0 31 -15 38c-4 2 -7 3 -11 3c-12 0 -22 -7 -27 -18c-3 -7 -4 -15 -1 -22s9 -13 16 -16c4 -2 8 -3 12 -3zM81 -46c21 0 37 17 37 38s-16 38 -37 38s-38 -17 -38 -38s17 -38 38 -38z
M222 168c0 -21 17 -38 38 -38s38 17 38 38s-17 38 -38 38s-38 -17 -38 -38zM440 -46c21 0 37 17 37 38s-16 38 -37 38s-38 -17 -38 -38s17 -38 38 -38z" />
    <glyph glyph-name="uniF122" unicode="&#xf122;" 
d="M256 448c141 0 256 -115 256 -256s-115 -256 -256 -256s-256 115 -256 256s115 256 256 256zM494 192c0 131 -107 238 -238 238c-60 0 -115 -22 -157 -59l141 -141l150 62v0l2 1l30 12l37 -91l-144 -59l120 -120c37 42 59 97 59 157zM178 186l-97 -40l23 -58l98 40z
M218 134l66 27l-49 48l-41 -16zM253 217l49 -48l109 44l-23 58zM18 192c0 -131 107 -238 238 -238c65 0 124 26 167 68l-126 125l-202 -82l-38 91l165 67l-136 136c-42 -43 -68 -102 -68 -167z" />
    <glyph glyph-name="uniF123" unicode="&#xf123;" 
d="M254 139c0 0 29 1 45 11l84 -145s-47 -39 -128 -39s-131 39 -131 39l85 145c16 -10 45 -11 45 -11zM255 174c-28 0 -50 22 -50 50s22 51 50 51s50 -23 50 -51s-22 -50 -50 -50zM479 353c41 -70 32 -133 32 -133h-168c1 19 -13 46 -13 46s-15 25 -32 33l84 146
s56 -22 97 -92zM182 268c0 0 -14 -25 -13 -44h-168s-10 60 31 130s99 94 99 94l83 -146c-17 -8 -32 -34 -32 -34z" />
    <glyph glyph-name="uniF124" unicode="&#xf124;" horiz-adv-x="354" 
d="M344 448c5 0 10 -4 10 -9v-81c0 -5 -5 -9 -10 -9h-31v-404c0 -5 -5 -9 -10 -9h-256c-5 0 -9 4 -9 9v404h-29c-5 0 -9 4 -9 9v81c0 5 4 9 9 9h335zM56 24h238v256h-238v-256zM335 367v63h-317v-63h317zM84 64v18h126v-18h-126zM84 228v19h126v-19h-126zM84 192v18h62v-18
h-62z" />
    <glyph glyph-name="uniF125" unicode="&#xf125;" 
d="M473 409c25 -25 39 -59 39 -95s-14 -70 -39 -95l-244 -244c-25 -25 -59 -39 -95 -39s-70 14 -95 39s-39 59 -39 95s14 70 39 95l244 244c25 25 59 39 95 39s70 -14 95 -39zM459 232c22 22 34 51 34 82s-12 59 -34 81s-50 34 -81 34s-60 -12 -82 -34l-123 -123l163 -163z
" />
    <glyph glyph-name="uniF126" unicode="&#xf126;" 
d="M500 437c21 -21 14 -66 -21 -128c-10 -18 -23 -37 -37 -57c14 -66 -5 -137 -56 -188c-40 -40 -93 -61 -146 -61c-14 0 -27 2 -41 5c-62 -45 -118 -72 -154 -72c-14 0 -26 4 -34 12c-21 21 -12 63 26 124c7 11 15 23 24 35c-45 79 -34 182 33 249c40 40 93 60 146 60
c36 0 71 -9 103 -27c49 35 95 59 127 59c13 0 23 -4 30 -11zM107 343c-36 -36 -55 -83 -55 -133s19 -97 55 -133c25 -25 55 -41 88 -49c39 29 81 64 121 104c41 41 78 84 107 124c-8 33 -26 63 -50 87c-36 36 -83 55 -133 55s-97 -19 -133 -55zM45 -45c30 0 77 22 131 59
c-30 10 -58 26 -82 50c-8 8 -15 18 -22 27c-7 -10 -13 -20 -19 -29c-32 -50 -43 -87 -29 -101c4 -4 12 -6 21 -6zM428 210c0 7 0 14 -1 21c-28 -37 -61 -75 -98 -112s-74 -69 -109 -96c7 -1 13 -1 20 -1c50 0 97 19 133 55s55 83 55 133zM436 275c10 15 19 29 27 43
c29 52 38 92 24 106c-4 4 -9 6 -17 6c-24 0 -63 -19 -110 -52c9 -7 18 -14 26 -22c23 -23 40 -52 50 -81z" />
    <glyph glyph-name="uniF127" unicode="&#xf127;" 
d="M508 339c2 -1 4 -4 4 -7s-1 -5 -3 -7l-151 -154c-2 -2 -4 -3 -6 -3h-1c-3 0 -4 2 -6 4c-8 11 -24 33 -42 62l-229 -234c-11 -11 -24 -17 -38 -17c-10 0 -20 4 -26 10c-16 16 -13 44 7 64l244 250c-29 56 -50 110 -29 131c6 6 15 10 28 10c26 0 67 -15 107 -33
c11 11 25 17 38 17c10 0 20 -4 26 -10c8 -8 11 -19 9 -32c-1 -4 -2 -7 -3 -11c38 -21 68 -38 71 -40zM245 426c-9 -9 -2 -45 29 -106l79 81c-36 16 -71 29 -93 29c-5 0 -11 0 -15 -4zM62 13l348 357c7 7 11 15 12 23c1 7 0 12 -4 16s-9 5 -13 5c-9 0 -18 -4 -26 -12
l-349 -357c-13 -13 -16 -30 -7 -39c4 -4 9 -5 13 -5c9 0 18 4 26 12zM353 191l136 138c-12 7 -35 21 -61 35c-2 -2 -3 -4 -5 -6l-107 -110c11 -18 23 -37 37 -57z" />
    <glyph glyph-name="uniF128" unicode="&#xf128;" horiz-adv-x="511" 
d="M509 445c2 -2 3 -5 2 -8c-6 -31 -38 -187 -59 -208l-73 -73v0l-44 -213c-1 -3 -3 -6 -6 -7h-3c-2 0 -5 1 -7 3l-83 83c-32 -13 -80 -18 -87 -19h-1c-2 0 -4 1 -6 3l-73 73c-2 2 -3 4 -3 7c1 7 6 55 19 87l-82 82c-2 2 -3 6 -2 9s4 5 7 6l210 44l74 75
c21 21 177 53 208 59c3 1 7 -1 9 -3zM305 375l-194 -193c-6 -6 -11 -19 -15 -34l114 -115c15 4 28 9 34 15l194 194zM153 64l-24 25l-22 -22l24 -25zM28 256l66 -66c1 2 3 4 4 5l96 95zM91 126c-3 -13 -5 -26 -6 -37l9 -9l21 22zM145 29l7 -7c11 1 24 3 37 6l-23 23z
M320 -36l36 169l-98 -98c-1 -1 -3 -3 -5 -4zM447 259c13 34 31 109 43 168c-59 -12 -134 -30 -168 -43zM310 204c-11 0 -23 4 -31 12s-12 19 -12 30s4 23 12 31s19 12 30 12s23 -4 31 -12s12 -20 12 -31s-4 -22 -12 -30s-19 -12 -30 -12zM292 264c-5 -5 -7 -11 -7 -18
s2 -12 7 -17c9 -9 26 -9 35 0c5 5 7 10 7 17s-2 13 -7 18s-10 7 -17 7s-13 -2 -18 -7zM0 3l62 62l13 -13l-62 -62zM21 -55l-13 13l76 75l13 -13zM122 -5l-44 -43l-13 13l44 43z" />
    <glyph glyph-name="uniF129" unicode="&#xf129;" horiz-adv-x="383" 
d="M381 154c2 -2 2 -4 2 -7s-2 -4 -4 -6c-36 -25 -79 -38 -123 -38c-21 0 -41 2 -60 8c20 -63 49 -148 59 -161c2 -3 2 -6 0 -9s-5 -5 -8 -5h-238c-3 0 -6 2 -8 5s-1 6 1 9c10 14 54 153 80 240c-27 36 -44 82 -44 131c0 44 13 87 38 123c2 2 4 4 7 4s5 -1 7 -3l138 -138
l78 78c-3 5 -4 11 -4 17c0 21 17 39 38 39s39 -18 39 -39s-18 -38 -39 -38c-9 0 -16 2 -22 7l-77 -76zM340 423c-11 0 -20 -10 -20 -21s9 -20 20 -20s21 9 21 20s-10 21 -21 21zM232 -46c-18 40 -49 140 -57 164c-30 12 -58 31 -80 55c-14 -47 -53 -174 -72 -219h209z
M256 121c37 0 73 10 104 29l-275 275c-19 -31 -29 -67 -29 -104c0 -110 90 -200 200 -200z" />
    <glyph glyph-name="uniF12A" unicode="&#xf12a;" 
d="M478 210l-287 -244c-1 -1 -2 -1 -3 -2l-1 -2v1c-20 -15 -44 -25 -71 -25c-64 0 -116 52 -116 116c0 35 16 66 40 87l224 307l14 -11l-200 -274c12 4 25 6 38 6s25 -2 37 -6l141 168l14 -11l-138 -164c16 -9 30 -21 40 -36l289 278l13 -13l-292 -281c7 -15 11 -32 11 -50
c0 -12 -2 -23 -5 -34l241 204zM18 54c0 -54 44 -98 98 -98c23 0 44 9 61 22l2 2c21 18 34 45 34 74c0 13 -2 25 -7 36l-48 -46c4 -6 6 -13 6 -21c0 -20 -17 -37 -37 -37s-37 17 -37 37s17 37 37 37c6 0 12 -1 17 -4l53 51c-17 27 -47 44 -81 44c-54 0 -98 -43 -98 -97z
M146 23c0 11 -8 19 -19 19c-10 0 -19 -8 -19 -19s8 -19 19 -19s19 8 19 19z" />
    <glyph glyph-name="uniF12B" unicode="&#xf12b;" horiz-adv-x="510" 
d="M300 223l74 -74c21 -21 21 -55 0 -76c-10 -10 -24 -16 -38 -16s-28 6 -38 16l-74 74l-18 -18l43 -43l-157 -150l-92 92l156 150l37 -37l18 18l-74 74c-10 10 -16 25 -16 39s6 28 16 38s24 16 38 16s29 -6 39 -16l73 -74l18 18l-44 44l156 150l93 -92l-157 -150l-35 35z
M417 423l-131 -125l67 -67l131 125zM93 -39l130 125l-67 67l-130 -125zM362 85c14 14 14 38 0 52l-161 160c-7 7 -16 11 -26 11s-18 -4 -25 -11s-11 -15 -11 -25s4 -19 11 -26l160 -161c7 -7 16 -10 26 -10s19 3 26 10zM256 218c15 0 27 -12 27 -27s-12 -27 -27 -27
s-27 12 -27 27s12 27 27 27zM256 182c5 0 9 4 9 9s-4 9 -9 9s-9 -4 -9 -9s4 -9 9 -9z" />
    <glyph glyph-name="uniF12C" unicode="&#xf12c;" 
d="M247 241l32 -106c1 -4 -1 -8 -4 -10c-2 -1 -3 -2 -5 -2s-4 1 -5 2l-95 59l-95 -59c-3 -2 -7 -2 -10 0s-4 6 -3 10l32 106l-91 73c-3 2 -4 6 -3 10s4 6 8 6l113 5l41 107c1 3 4 6 8 6s8 -3 9 -6l41 -107l112 -5c4 0 7 -2 8 -6s0 -8 -3 -10zM234 421v18h278v-18h-278z
M378 299v17h134v-17h-134zM296 229v17h216v-17h-216zM325 168v18h187v-18h-187z" />
    <glyph glyph-name="uniF12D" unicode="&#xf12d;" 
d="M247 241l32 -106c1 -4 -1 -8 -4 -10s-7 -2 -10 0l-95 59l-95 -59c-1 -1 -2 -2 -4 -2s-4 1 -6 2c-3 2 -4 6 -3 10l32 106l-91 73c-3 2 -4 6 -3 10s4 6 8 6l113 5l41 107c1 3 4 6 8 6s8 -3 9 -6l41 -107l112 -5c4 0 7 -2 8 -6s0 -8 -3 -10zM175 202l80 -50l-27 89
c-1 3 0 8 3 10l77 62l-95 5c-4 0 -7 2 -8 5l-35 91l-35 -91c-1 -3 -3 -5 -7 -5l-95 -5l77 -62c3 -2 4 -7 3 -10l-27 -89l80 50c3 2 6 2 9 0zM234 421v18h278v-18h-278zM378 299v17h134v-17h-134zM296 229v17h216v-17h-216zM325 168v17h187v-17h-187z" />
    <glyph glyph-name="uniF12E" unicode="&#xf12e;" horiz-adv-x="473" 
d="M279 294c-16 0 -28 12 -28 28s12 29 28 29s29 -13 29 -29s-13 -28 -29 -28zM254 248h-36l18 37zM193 294c-16 0 -29 12 -29 28s13 29 29 29s29 -13 29 -29s-13 -28 -29 -28zM147 245c-1 2 -2 2 -3 4c-15 19 -33 40 -33 70c0 70 57 129 125 129c69 0 126 -57 126 -126
c0 -29 -16 -54 -33 -74c3 -14 1 -33 -3 -43c-8 -23 -25 -25 -32 -25c-11 0 -20 6 -27 13c-7 -7 -17 -13 -28 -13s-20 5 -27 12c-8 -7 -17 -14 -28 -14c-8 0 -15 3 -21 9c-13 14 -16 43 -16 58zM236 430c-60 0 -107 -52 -107 -111c0 -28 19 -46 36 -68c0 0 0 -55 19 -55
c11 0 22 15 28 23c6 -8 16 -22 27 -22s22 15 28 23c6 -8 16 -22 27 -22c19 0 22 47 14 53c17 19 36 44 36 71c0 60 -48 108 -108 108zM445 70c23 -11 33 -35 24 -55c-5 -11 -16 -19 -29 -21c7 -11 7 -25 2 -36c-6 -13 -20 -21 -36 -21c-7 0 -15 2 -22 5c-11 5 -19 13 -24 23
c-4 10 -4 20 -1 29c-1 1 -3 2 -4 3l-118 56l-119 -56c-1 -1 -3 -2 -4 -3c3 -9 3 -19 -1 -29c-5 -10 -13 -19 -24 -24c-7 -3 -15 -5 -22 -5c-16 0 -31 8 -37 21c-5 12 -4 26 3 37c-13 2 -25 9 -30 20c-5 10 -4 21 1 32c5 10 13 19 24 24c7 3 15 5 22 5c15 0 28 -7 35 -19
c2 0 3 1 4 1l71 33l-71 33c-1 0 -2 1 -4 1c-7 -12 -20 -19 -35 -19c-7 0 -15 2 -22 5c-23 11 -34 36 -25 56c5 11 17 19 30 21c-7 11 -9 24 -3 36c6 13 21 21 37 21c7 0 15 -2 22 -5c22 -10 32 -34 25 -53c1 -1 3 -2 4 -3l119 -56l118 56c1 1 3 2 4 3c-3 9 -3 19 1 29
c5 10 13 18 24 23c7 3 15 5 22 5c16 0 30 -8 36 -21c5 -11 5 -25 -2 -36c13 -2 24 -10 29 -21c9 -20 -1 -44 -24 -55c-7 -3 -15 -5 -22 -5c-15 0 -28 6 -35 18h-5l-69 -33l69 -33h5c7 12 20 18 35 18c7 0 15 -2 22 -5zM96 140l84 -40l36 17l-108 51c-4 3 -16 12 -11 23
s-2 25 -16 32c-5 2 -9 3 -14 3c-9 0 -18 -4 -21 -11c-5 -10 2 -24 14 -31l7 -4l-8 -16l-7 3c-4 2 -8 2 -12 2c-9 0 -18 -4 -21 -11c-5 -11 2 -25 16 -32c5 -2 10 -3 15 -3v0c9 0 17 4 20 11c1 3 5 8 14 8c5 0 10 -2 11 -2h1zM109 13l269 127c1 0 5 1 10 1c9 0 14 -4 15 -7
c3 -7 11 -12 20 -12c5 0 9 2 14 4c14 7 21 21 16 32c-4 9 -17 13 -29 10l-7 -2l-7 15l6 5c10 7 14 19 10 28c-3 7 -11 12 -20 12c-5 0 -9 -2 -14 -4c-7 -3 -13 -9 -16 -15s-2 -12 0 -17c5 -11 -7 -19 -11 -22l-1 -1l-269 -127c-1 0 -6 -2 -11 -2c-9 0 -13 5 -14 8
c-3 7 -11 11 -20 11c-5 0 -10 -1 -15 -3c-7 -3 -12 -9 -15 -15s-3 -12 -1 -17c5 -10 20 -14 33 -9l7 3l8 -16l-7 -4c-12 -7 -19 -21 -14 -31c3 -7 12 -11 21 -11c5 0 9 1 14 3c7 3 13 9 16 15s2 12 0 17c-5 11 7 20 11 23zM453 22c5 11 -2 25 -16 32c-5 2 -9 4 -14 4
c-9 0 -17 -5 -20 -12c-1 -3 -6 -7 -15 -7c-5 0 -9 1 -10 1l-1 1l-83 39l-36 -17l107 -51c4 -3 16 -11 11 -22c-2 -5 -3 -11 0 -17s9 -12 16 -15c5 -2 9 -4 14 -4c9 0 17 5 20 12c4 9 0 21 -10 28l-6 5l7 15l7 -2c12 -3 25 1 29 10z" />
    <glyph glyph-name="uniF12F" unicode="&#xf12f;" horiz-adv-x="465" 
d="M232 3c10 0 18 -8 18 -18s-8 -18 -18 -18s-18 8 -18 18s8 18 18 18zM232 448c139 0 233 -85 233 -213l-19 -206c0 -64 -108 -93 -214 -93s-213 29 -213 94l-19 204c0 129 93 214 232 214zM428 30l18 205c0 116 -86 195 -214 195s-214 -78 -214 -195l19 -204
c0 -38 67 -77 195 -77s196 38 196 76zM232 332c81 0 184 -40 184 -64l-9 -203c0 -26 -105 -46 -175 -46c-6 0 -12 1 -18 1c-56 2 -156 19 -156 45l-9 202c0 21 68 44 76 47c25 8 64 18 107 18zM67 266l9 -199c8 -7 56 -24 125 -28l-79 255c-32 -11 -51 -23 -55 -28z" />
    <glyph glyph-name="uniF130" unicode="&#xf130;" horiz-adv-x="511" 
d="M504 441c11 -11 9 -32 -6 -67c-8 -18 -19 -39 -32 -61c-20 -34 -43 -64 -58 -79l-6 -7h1c-41 -62 -42 -120 -43 -172c-1 -46 -2 -86 -32 -116c-2 -2 -4 -3 -6 -3s-5 1 -7 3l-101 101l-22 -23l-37 37l-27 -71l-84 84l68 30l-32 33l22 22l-99 99c-2 2 -3 5 -3 7s1 4 3 6
c30 30 70 31 116 32c50 1 107 2 167 40l10 10c15 14 43 36 75 55c23 14 46 26 65 34c35 15 57 17 68 6zM22 257l93 -93l132 132c-46 -17 -91 -18 -128 -19c-40 -1 -73 -1 -97 -20zM341 55c1 38 2 84 21 132l-135 -135l94 -94c19 24 19 57 20 97zM395 246c10 10 23 27 37 48
l-75 76c-20 -14 -38 -27 -48 -37l-9 -9l1 -1l-3 -2l-192 -191l35 -36l72 72l13 -13l-72 -72l38 -38zM450 322c11 19 21 37 28 53l-40 41c-17 -8 -37 -19 -57 -31c-3 -2 -6 -3 -9 -5l66 -65v0l4 -5c3 4 5 8 8 12z" />
    <glyph glyph-name="uniF131" unicode="&#xf131;" 
d="M512 261c1 -4 0 -8 -3 -10l-141 -114l49 -165c1 -4 0 -8 -3 -10c-2 -1 -3 -2 -5 -2s-4 0 -5 1l-148 93l-148 -93c-3 -2 -7 -1 -10 1s-4 6 -3 10l49 165l-141 114c-3 2 -4 6 -3 10s4 6 8 6l176 8l64 167c1 3 4 6 8 6s7 -3 8 -6l64 -167l176 -8c4 0 7 -2 8 -6z" />
    <glyph glyph-name="uniF132" unicode="&#xf132;" 
d="M512 261c1 -4 0 -8 -3 -10l-141 -114l49 -165c1 -4 0 -8 -3 -10s-7 -2 -10 0l-148 92l-148 -93c-1 -1 -3 -1 -5 -1s-3 1 -5 2c-3 2 -4 6 -3 10l49 165l-141 114c-3 2 -4 6 -3 10s4 6 8 6l176 8l64 167c1 3 4 6 8 6s7 -3 8 -6l64 -167l176 -8c4 0 7 -2 8 -6zM352 147
l127 103l-157 8c-4 0 -7 3 -8 6l-58 150l-58 -150c-1 -3 -4 -6 -8 -6l-157 -8l127 -103c3 -2 4 -6 3 -9l-44 -149l132 83c3 2 7 2 10 0l132 -83l-44 149c-1 3 0 7 3 9z" />
    <glyph glyph-name="uniF133" unicode="&#xf133;" horiz-adv-x="506" 
d="M444 104c34 0 62 -29 62 -63s-28 -62 -62 -62s-63 28 -63 62c0 11 4 22 9 31c-10 6 -19 9 -26 8c-16 -2 -30 -21 -50 -47c-13 -17 -28 -38 -48 -58c-25 -25 -62 -39 -106 -39c-15 0 -30 2 -46 5c-54 11 -99 38 -111 68c-4 11 -4 19 0 26c8 12 25 14 47 16
c35 3 79 6 100 49c-70 40 -88 164 -38 283c19 45 38 65 60 65c14 0 26 -8 40 -18c5 2 11 1 16 -2l25 -18c8 -6 10 -17 4 -25s-17 -10 -25 -4l-25 19c-5 4 -8 10 -7 16c-11 8 -20 14 -28 14c-14 0 -28 -18 -43 -54c-49 -116 -31 -234 39 -264c11 -4 22 -7 34 -7
c67 0 141 67 182 163c14 33 17 55 11 66c-4 7 -13 11 -25 13c-3 -2 -8 -4 -12 -3l-31 4c-9 1 -16 10 -15 19c1 10 10 16 20 15l30 -4c8 -1 14 -7 15 -14c15 -3 27 -9 34 -21c10 -17 7 -42 -10 -82c-43 -103 -125 -174 -199 -174c-12 0 -25 2 -36 6c-26 -52 -79 -58 -114 -61
c-14 -1 -30 -3 -33 -7c-1 -2 -1 -5 1 -10c9 -24 50 -48 97 -57c56 -11 107 1 136 30c19 20 33 39 46 56c22 29 38 51 62 54c12 2 26 -3 40 -12c11 11 26 18 43 18zM444 -3c24 0 44 20 44 44s-20 44 -44 44s-44 -20 -44 -44s20 -44 44 -44z" />
    <glyph glyph-name="uniF134" unicode="&#xf134;" horiz-adv-x="511" 
d="M508 350c4 -4 4 -9 0 -13c-2 -2 -4 -3 -6 -3s-5 1 -7 3l-27 28l-71 -71l39 -39l-247 -252l-55 54l-118 -118c-2 -2 -5 -3 -7 -3s-4 1 -6 3c-4 4 -4 9 0 13l118 118l-57 57l37 37l25 25v1v0l27 28l103 104l56 56l45 -45l71 71l-28 28c-4 4 -4 9 0 13s9 4 13 0l28 -28l6 7
l40 -40l-6 -6zM189 29l221 225l-26 27c-1 0 -2 0 -3 1l-24 25l-7 7l-38 38l-36 -37l61 -61c4 -4 4 -9 0 -13c-2 -2 -5 -3 -7 -3s-4 1 -6 3l-62 61l-11 -12l44 -43c4 -4 4 -9 0 -13c-2 -2 -5 -3 -7 -3s-4 1 -6 3l-44 43l-15 -15l44 -43c4 -4 4 -9 0 -13c-2 -2 -5 -3 -7 -3
s-4 1 -6 3l-44 43l-11 -12l63 -63c4 -4 4 -10 0 -14c-2 -2 -4 -2 -6 -2s-5 0 -7 2l-63 64l-13 -13l38 -38c4 -4 4 -9 0 -13c-2 -2 -4 -3 -6 -3s-5 1 -7 3l-38 38l-15 -15l39 -38c4 -4 4 -9 0 -13c-2 -2 -5 -3 -7 -3s-4 1 -6 3l-39 38l-12 -12l62 -62c4 -4 4 -9 0 -13
c-2 -2 -5 -3 -7 -3s-4 1 -6 3l-62 61l-17 -17l49 -49v0l2 -1l1 -1v-1z" />
    <glyph glyph-name="uniF135" unicode="&#xf135;" 
d="M512 287c0 -37 -73 -62 -162 -72l71 -235l-8 -3c-2 -1 -62 -23 -157 -23s-156 22 -159 23l-8 3l74 235c-89 10 -163 35 -163 72c0 34 62 57 142 68c11 53 58 93 114 93s103 -40 114 -93c79 -11 142 -34 142 -68zM256 430c-45 0 -83 -30 -95 -72c30 3 63 5 95 5
s65 -1 96 -5c-12 42 -51 72 -96 72zM129 -13c26 -6 70 -15 127 -15c58 0 102 9 127 15c-19 8 -59 19 -127 19c-69 0 -108 -11 -127 -19zM396 1l-64 213c-25 -2 -51 -4 -76 -4s-51 1 -75 3l-67 -213c17 8 61 24 142 24c78 0 121 -14 140 -23zM195 255l-8 -24
c21 -2 44 -3 69 -3s49 1 71 3l-8 24c-14 -5 -37 -8 -62 -8c-26 0 -48 3 -62 8zM345 233c94 10 149 35 149 54c0 24 -91 58 -238 58s-238 -34 -238 -58c0 -19 56 -45 151 -55l11 38l1 -1c5 10 37 18 76 18c43 0 78 -9 78 -20v-1z" />
  </font>
</defs>
</svg>
